找回密码
 立即注册
快捷导航
发帖
飘盘 聊天 资讯 萌图 漫画 动画 规则 帮助 手机客户端 新手指南
查看: 4162|回复: 264

[百度网盘] [原創/自購DVD/合成][漂靈/死神/BLEACH/ブリーチ][粵日雙語典藏版][更新至127]

  [复制链接]

签到天数: 507 天

[LV.9]以坛为家II

76

主题

5

好友

3665

积分

风之精灵LV.2

Rank: 13Rank: 13Rank: 13

帖子
1679
雪点
23597
阅读权限
80
性别
在线时间
1116 小时
注册时间
2016-12-14
最后登录
2019-4-22

哈比夏露露

发表于 2017-1-4 21:20:38 | 显示全部楼层 |阅读模式
本帖最后由 joeleejj 于 2017-11-29 17:07 编辑


【文件名稱】:漂靈/死神/BLEACH/ブ
リーチ
【文件集數】:001話 - 163話 (更新至127話)
【文件大小】:156MB
【源件壓制】:DVD
【視頻尺寸】:960x728
【文件格式】:x264_MKV (原MP4用ffmpeg封裝MKV,無損保留畫質)

【音軌信息】:粵日2音軌 AC3杜比立體
【字幕信息】:內嵌中日雙語特效硬字幕

【文件來源】:SB-RAW片源,Sx2YA小組壓制。特別感謝SB-RAW與Sx2YA小組
【音軌制作】:joeleejj
【網盤分流】:MEGA,百毒
【資源期限】:一年(本意是做個數碼版自己收藏用,反正做了也讓大家分享一下吧)
【資源報錯】:如有發現音軌不同步,請戳我發消息,謝謝。
【閱讀權限】:50 (土之精灵LV2)


【內容簡介】:故事的主角黑崎一護是個看似暴力、單薄,實質上善良、勇敢、愛護家庭的少年,并且擁有能看見靈的體質。家里有一個開診所的老爸和兩個性格正常的妹妹夏梨和游子,一護每天七點必須按時回家,否則老爸便會使用“身體語言教訓”的家規。吵鬧的父子,懂事的妹妹以及與其他普通人并無大異的普通生活,直到女死神朽木露琪亞被他一腳踢到墻角并滿臉驚疑地望著他問“你能看見我?”時漫畫的序幕才這樣被正式地揭開。 從此黑崎一護身邊所有的事物都產生了翻天覆地的變化。

Complete name                            : 001话-成为死神的那天[DVDRiP_960x728.x264.AC3.粤日][Sx2YA小组].mkv
Format                                   : Matroska
Format version                           : Version 4 / Version 2
File size                                : 157 MiB
Duration                                 : 22 min 35 s
Overall bit rate mode                    : Variable
Overall bit rate                         : 970 kb/s
Encoded date                             : UTC 2017-01-03 09:29:13
Writing application                      : mkvmerge v9.7.1 ('Pandemonium') 64bit
Writing library                          : libebml v1.3.4 + libmatroska v1.4.5 / Lavf57.56.100

Video
ID                                       : 1
Format                                   : AVC
Format/Info                              : Advanced Video Codec
Format profile                           : High@L4.1
Format settings, CABAC                   : Yes
Format settings, ReFrames                : 3 frames
Codec ID                                 : V_MPEG4/ISO/AVC
Duration                                 : 22 min 35 s
Bit rate mode                            : Variable
Bit rate                                 : 712 kb/s
Maximum bit rate                         : 40.0 Mb/s
Width                                    : 960 pixels
Height                                   : 728 pixels
Display aspect ratio                     : 4:3
Frame rate mode                          : Constant
Frame rate                               : 23.976 (24000/1001) FPS
Color space                              : YUV
Chroma subsampling                       : 4:2:0
Bit depth                                : 8 bits
Scan type                                : Progressive
Bits/(Pixel*Frame)                       : 0.042
Stream size                              : 115 MiB (73%)
Writing library                          : x264 core 130 r2273 b3065e6
Encoding settings                        : cabac=1 / ref=4 / deblock=1:0:0 / analyse=0x3:0x113 / me=tesa / subme=10 / psy=1 / psy_rd=0.00:0.00 / mixed_ref=1 / me_range=64 / chroma_me=1 / trellis=2 / 8x8dct=1 / cqm=0 / deadzone=21,11 / fast_pskip=0 / chroma_qp_offset=0 / threads=6 / lookahead_threads=1 / sliced_threads=0 / slices=4 / nr=0 / decimate=1 / interlaced=0 / bluray_compat=0 / constrained_intra=0 / bframes=3 / b_pyramid=1 / b_adapt=2 / b_bias=0 / direct=1 / weightb=1 / open_gop=0 / weightp=0 / keyint=29 / keyint_min=2 / scenecut=40 / intra_refresh=0 / rc_lookahead=29 / rc=crf / mbtree=1 / crf=21.5 / qcomp=0.60 / qpmin=0 / qpmax=69 / qpstep=4 / vbv_maxrate=40000 / vbv_bufsize=30000 / crf_max=0.0 / nal_hrd=vbr / ip_ratio=1.40 / aq=2:1.00
Default                                  : Yes
Forced                                   : No
HANDLER_NAME                             : GPAC ISO Video Handler

Audio #1
ID                                       : 2
Format                                   : AC-3
Format/Info                              : Audio Coding 3
Mode extension                           : CM (complete main)
Format settings, Endianness              : Big
Codec ID                                 : A_AC3
Duration                                 : 22 min 34 s
Bit rate mode                            : Constant
Bit rate                                 : 128 kb/s
Channel(s)                               : 2 channels
Channel positions                        : Front: L R
Sampling rate                            : 48.0 kHz
Frame rate                               : 31.250 FPS (1536 spf)
Bit depth                                : 16 bits
Compression mode                         : Lossy
Stream size                              : 20.7 MiB (13%)
Title                                    : 粤语 AC3
Language                                 : Chinese
Default                                  : Yes
Forced                                   : No

Audio #2
ID                                       : 3
Format                                   : AC-3
Format/Info                              : Audio Coding 3
Mode extension                           : CM (complete main)
Format settings, Endianness              : Big
Codec ID                                 : A_AC3
Duration                                 : 22 min 34 s
Bit rate mode                            : Constant
Bit rate                                 : 128 kb/s
Channel(s)                               : 2 channels
Channel positions                        : Front: L R
Sampling rate                            : 48.0 kHz
Frame rate                               : 31.250 FPS (1536 spf)
Bit depth                                : 16 bits
Compression mode                         : Lossy
Stream size                              : 20.7 MiB (13%)
Title                                    : 日语 AC3
Language                                 : Japanese
Default                                  : No
Forced                                   : No



題外話,為何到163話?一直很喜歡看死神,但偏偏這些年一直找不到有任何人壓制粵語版,就快死心之際,日前讓我碰到居然有人賣粵語版DVD,最后的一批001到163,老天保佑幸好沒有被人零散買回去,二話不說立即要老板替我全包下來。日后如果有幸遇到163以后的,定會用來合成讓大家分享。
為何使用Sx2YA小組片源?因為它內嵌中日特效雙語,習慣用藍光機硬解看番的我的最佳選擇(藍光機解ASS字幕不會有特效)
合成進度不快,堅持100%純DVD截取的AC3不轉碼剪裁精確配合影片,對新手的我是沉重而繁復的。。。 吐嘈完畢,去片!



[回復可見,閱讀權限 50 可下載]
游客,如果您要查看本帖隐藏内容请回复*升级为VIP免回复查看立即升级

另外,发布蓝光版死神三语版第001话让大家看看(才刚完成)
链接: https://pan.baidu.com/s/1i5bVsyh 密码: 8r17


不定时更新作品发布日志

本帖子中包含更多资源

您需要 登录 才可以下载或查看,没有帐号?立即注册

x
飘雪动漫社★缤纷动漫☆创意未来!

签到天数: 507 天

[LV.9]以坛为家II

76

主题

5

好友

3665

积分

风之精灵LV.2

Rank: 13Rank: 13Rank: 13

帖子
1679
雪点
23597
阅读权限
80
性别
在线时间
1116 小时
注册时间
2016-12-14
最后登录
2019-4-22

哈比夏露露

 楼主| 发表于 2017-7-30 21:23:02 | 显示全部楼层 来自安卓客户端来自安卓客户端
maplep 发表于 2017-7-30 19:40
BANKAI!!!粤语。。怎样讲。。下载来看看下就职了。。

大概就是粤语"万解"的发音
回复 支持 1 反对 0

使用道具 举报

签到天数: 89 天

[LV.6]常住居民II

2

主题

0

好友

490

积分

土之精灵LV.2

Rank: 6Rank: 6

帖子
404
雪点
991
阅读权限
50
性别
保密
在线时间
35 小时
注册时间
2016-11-28
最后登录
2019-4-22
发表于 2019-4-12 20:48:41 | 显示全部楼层
谢谢分享,可惜动漫出不完
飘雪动漫社★缤纷动漫☆创意未来!
回复 支持 反对

使用道具 举报

签到天数: 252 天

[LV.8]以坛为家I

7

主题

2

好友

1734

积分

风之精灵LV.1

Rank: 8Rank: 8Rank: 8Rank: 8

帖子
1592
雪点
1382
阅读权限
70
性别
在线时间
278 小时
注册时间
2018-8-10
最后登录
2019-4-22
发表于 2019-4-12 13:24:17 | 显示全部楼层
謝謝樓主分享
飘雪动漫社★缤纷动漫☆创意未来!
回复 支持 反对

使用道具 举报

签到天数: 328 天

[LV.8]以坛为家I

1

主题

0

好友

471

积分

土之精灵LV.2

Rank: 6Rank: 6

帖子
173
雪点
3882
阅读权限
50
在线时间
112 小时
注册时间
2014-3-16
最后登录
2019-4-14
发表于 2019-4-3 14:37:53 | 显示全部楼层 来自苹果客户端来自苹果客户端
以前睇到蓝染之后就一直无睇过了!支持楼主持续更新!
飘雪动漫社★缤纷动漫☆创意未来!
回复 支持 反对

使用道具 举报

签到天数: 26 天

[LV.4]偶尔看看III

3

主题

0

好友

549

积分

土之精灵LV.2

Rank: 6Rank: 6

帖子
218
雪点
3748
阅读权限
50
性别
在线时间
26 小时
注册时间
2019-3-21
最后登录
2019-4-22
发表于 2019-4-3 03:59:49 | 显示全部楼层
死神其實幾好睇,可惜爛尾。。。
飘雪动漫社★缤纷动漫☆创意未来!
回复 支持 反对

使用道具 举报

签到天数: 241 天

[LV.8]以坛为家I

4

主题

2

好友

2069

积分

风之精灵LV.1

Rank: 8Rank: 8Rank: 8Rank: 8

帖子
1261
雪点
10005
阅读权限
70
性别
在线时间
407 小时
注册时间
2013-6-24
最后登录
2019-4-22
发表于 2019-4-2 20:18:23 | 显示全部楼层
收下粤语版
飘雪动漫社★缤纷动漫☆创意未来!
回复 支持 反对

使用道具 举报

签到天数: 568 天

[LV.9]以坛为家II

4

主题

0

好友

540

积分

土之精灵LV.2

Rank: 6Rank: 6

帖子
495
雪点
488
阅读权限
50
性别
保密
在线时间
554 小时
注册时间
2015-11-10
最后登录
2019-4-23
发表于 2019-3-29 23:09:34 | 显示全部楼层
支持樓主繼續合成 謝謝分享
飘雪动漫社★缤纷动漫☆创意未来!
回复 支持 反对

使用道具 举报

签到天数: 26 天

[LV.4]偶尔看看III

1

主题

0

好友

73

积分

水之精灵LV.2

Rank: 3

帖子
26
雪点
268
阅读权限
20
性别
在线时间
11 小时
注册时间
2019-3-18
最后登录
2019-4-22
发表于 2019-3-29 10:05:05 | 显示全部楼层
谢谢分享,相当给力的资源~~
飘雪动漫社★缤纷动漫☆创意未来!
回复 支持 反对

使用道具 举报

签到天数: 152 天

[LV.7]常住居民III

4

主题

0

好友

531

积分

土之精灵LV.2

Rank: 6Rank: 6

帖子
329
雪点
2485
阅读权限
50
性别
保密
在线时间
41 小时
注册时间
2014-7-18
最后登录
2019-4-23
发表于 2019-3-26 23:04:54 | 显示全部楼层
看完火影想看死神粤配的
飘雪动漫社★缤纷动漫☆创意未来!
回复 支持 反对

使用道具 举报

签到天数: 12 天

[LV.3]偶尔看看II

1

主题

0

好友

101

积分

水之精灵LV.3

Rank: 4Rank: 4

帖子
58
雪点
227
阅读权限
30
性别
保密
在线时间
10 小时
注册时间
2019-3-18
最后登录
2019-4-13
发表于 2019-3-24 16:02:03 | 显示全部楼层
谢谢楼主分享
飘雪动漫社★缤纷动漫☆创意未来!
回复 支持 反对

使用道具 举报

签到天数: 68 天

[LV.6]常住居民II

1

主题

0

好友

282

积分

土之精灵LV.1

Rank: 5Rank: 5Rank: 5

帖子
166
雪点
1071
阅读权限
40
性别
在线时间
39 小时
注册时间
2019-2-15
最后登录
2019-4-23
发表于 2019-3-21 21:20:37 | 显示全部楼层 来自苹果客户端来自苹果客户端
土精2
飘雪动漫社★缤纷动漫☆创意未来!
回复 支持 反对

使用道具 举报

您需要登录后才可以回帖 登录 | 立即注册

本版积分规则

下载客户端
安卓客户端 IOS客户端

快来加入我们吧!!

官方QQ群号

飘雪动漫社

Powered by Discuz! X3.4© 2001-2019 Comsenz Inc.

手机版| 小黑屋| Archiver| 飘雪动漫社

GMT+8, 2019-4-23 05:07 , Processed in 0.132892 second(s), 43 queries , MemCache On.