找回密码
 立即注册
快捷导航
发帖
飘盘 聊天 资讯 萌图 漫画 动画 规则 帮助 手机客户端 新手指南
查看: 157|回复: 11

[粤语动画] [哆啦A梦剧场版1986:大雄与铁人兵团][1080i/HDTV/TS/国粤(TVB粤语)日四语/14.48GB]

[复制链接]

签到天数: 117 天

[LV.6]常住居民II

8

主题

1

好友

115

积分

水之精灵LV.3

Rank: 4Rank: 4

帖子
48
雪点
669
阅读权限
30
性别
在线时间
36 小时
注册时间
2015-11-27
最后登录
2018-10-22
发表于 2018-10-15 23:13:38 | 显示全部楼层 |阅读模式
片源由a574045075提供,在此感谢!
台配音轨、粤语音轨提取自VCD,TVB粤语取自TVB录制源码,已做调制匹配高清重制版。
如需转载,请注明出处!
[attach]113564[/attach]
◎译  名 哆啦A梦:大雄与铁人兵团/哆啦A夢:大雄与铁人兵团
◎片  名 ドラえもん のび太と鉄人兵団
◎年  代 1986
◎产  地 日本
◎类  别 科幻/动画/冒险
◎语  言 日语
◎上映日期 1986-03-15
◎IMDb评分  7.1/10 from 139 users
◎IMDb链接  http://www.imdb.com/title/tt1147528/
◎豆瓣评分 8.3/10 from 2,355 users
◎豆瓣链接 https://movie.douban.com/subject/1458894/
◎片  长 97分钟
◎导  演 芝山努 Tsutomu Shibayama
◎主  演 大山信代 Nobuyo Ohyama
       小原乃梨子 Noriko Ohara
       立壁和也 Kazuya Tatekabe
       肝付兼太 Kaneta Kimotsuki
       野村道子 Michiko Nomura
       熊倉一雄 Kazuo Kumakura

◎简  介

  因为玩具机器人,大雄(小原乃梨子 配音)受到小夫(肝付兼太 配音)和胖虎(立壁和也 配音)的奚落,连哆啦A梦(大山のぶ代 配音)不愿帮他。为了寻找生气走掉的哆啦A梦,大雄通过任意门来到寒冷的北极,却在这里发现奇怪的机器人零件。在此之后,各式的零件源源不断从空中掉落至大雄的家中。由于零件过于巨大,为了不引起骚动,两个好友将机器运到镜面世界,并组装成巨大的机器人。他们兴奋地邀请静香(野村道子 配音)来镜面世界玩耍,偶然间发现机器人竟然装备有威力强大的武器。不久,一个名为莉露露(山本百合子 配音)的女孩出现在小镇上,她自称是机器人的主人。大雄他们热心地将镜面世界工具借给莉露露,却发现她在那里建立了毁灭地球的基地……

[attach]113565[/attach]
[attach]113566[/attach]
[attach]113567[/attach]
  1. General
  2. ID                          : 1 (0x1)
  3. Complete name               : J:\Doraemon Nobita and the Steel Troops 1986 HDTV 1080i MPEG-2 4Audio-doraemon.ts
  4. Format                      : MPEG-TS
  5. File size                   : 14.5 GiB
  6. Duration                    : 1 h 37 min
  7. Overall bit rate mode       : Variable
  8. Overall bit rate            : 21.3 Mb/s
  9. Maximum Overall bit rate    : 35.5 Mb/s

  10. Video
  11. ID                          : 4113 (0x1011)
  12. Menu ID                     : 1 (0x1)
  13. Format                      : MPEG Video
  14. Format version              : Version 2
  15. Format profile              : Main@High
  16. Format settings             : CustomMatrix / BVOP
  17. Format settings, BVOP       : Yes
  18. Format settings, Matrix     : Custom
  19. Format settings, GOP        : Variable
  20. Format settings, picture st : Frame
  21. Codec ID                    : 2
  22. Duration                    : 1 h 37 min
  23. Bit rate mode               : Variable
  24. Width                       : 1 920 pixels
  25. Height                      : 1 080 pixels
  26. Display aspect ratio        : 16:9
  27. Frame rate                  : 29.970 (30000/1001) FPS
  28. Color space                 : YUV
  29. Chroma subsampling          : 4:2:0
  30. Bit depth                   : 8 bits
  31. Scan type                   : Interlaced
  32. Scan order                  : Top Field First
  33. Compression mode            : Lossy
  34. Time code of first frame    : 00:00:00:00
  35. Time code source            : Group of pictures header
  36. GOP, Open/Closed            : Open
  37. Color primaries             : BT.709
  38. Transfer characteristics    : BT.709
  39. Matrix coefficients         : BT.709

  40. Audio #1
  41. ID                          : 4352 (0x1100)
  42. Menu ID                     : 1 (0x1)
  43. Format                      : AAC LC
  44. Format/Info                 : Advanced Audio Codec Low Complexity
  45. Format version              : Version 2
  46. Muxing mode                 : ADTS
  47. Codec ID                    : 15-2
  48. Duration                    : 1 h 37 min
  49. Bit rate mode               : Variable
  50. Channel(s)                  : 2 channels
  51. Channel layout              : L R
  52. Sampling rate               : 48.0 kHz
  53. Frame rate                  : 46.875 FPS (1024 SPF)
  54. Compression mode            : Lossy
  55. Language                    : Japanese

  56. Audio #2
  57. ID                          : 4353 (0x1101)
  58. Menu ID                     : 1 (0x1)
  59. Format                      : AC-3
  60. Format/Info                 : Audio Coding 3
  61. Commercial name             : Dolby Digital
  62. Codec ID                    : 129
  63. Duration                    : 1 h 37 min
  64. Bit rate mode               : Constant
  65. Bit rate                    : 224 kb/s
  66. Channel(s)                  : 2 channels
  67. Channel layout              : L R
  68. Sampling rate               : 48.0 kHz
  69. Frame rate                  : 31.250 FPS (1536 SPF)
  70. Bit depth                   : 16 bits
  71. Compression mode            : Lossy
  72. Stream size                 : 156 MiB (1%)
  73. Language                    : Chinese
  74. Service kind                : Complete Main

  75. Audio #3
  76. ID                          : 4354 (0x1102)
  77. Menu ID                     : 1 (0x1)
  78. Format                      : AC-3
  79. Format/Info                 : Audio Coding 3
  80. Commercial name             : Dolby Digital
  81. Codec ID                    : 129
  82. Duration                    : 1 h 37 min
  83. Bit rate mode               : Constant
  84. Bit rate                    : 224 kb/s
  85. Channel(s)                  : 2 channels
  86. Channel layout              : L R
  87. Sampling rate               : 48.0 kHz
  88. Frame rate                  : 31.250 FPS (1536 SPF)
  89. Bit depth                   : 16 bits
  90. Compression mode            : Lossy
  91. Stream size                 : 156 MiB (1%)
  92. Language                    : Chinese
  93. Service kind                : Complete Main

  94. Audio #4
  95. ID                          : 4355 (0x1103)
  96. Menu ID                     : 1 (0x1)
  97. Format                      : AC-3
  98. Format/Info                 : Audio Coding 3
  99. Commercial name             : Dolby Digital
  100. Codec ID                    : 129
  101. Duration                    : 1 h 37 min
  102. Bit rate mode               : Constant
  103. Bit rate                    : 192 kb/s
  104. Channel(s)                  : 2 channels
  105. Channel layout              : L R
  106. Sampling rate               : 48.0 kHz
  107. Frame rate                  : 31.250 FPS (1536 SPF)
  108. Bit depth                   : 16 bits
  109. Compression mode            : Lossy
  110. Stream size                 : 134 MiB (1%)
  111. Language                    : Chinese
  112. Service kind                : Complete Main
复制代码

购买主题 已有 3 人购买  本主题需向作者支付 5 雪点 才能浏览
飘雪动漫社★缤纷动漫☆创意未来!

签到天数: 1494 天

[LV.10]以坛为家III

484

主题

55

好友

7万

积分

精灵王

Rank: 17Rank: 17Rank: 17Rank: 17Rank: 17

帖子
78449
雪点
10242
阅读权限
130
在线时间
9684 小时
注册时间
2014-5-26
最后登录
2018-11-15
发表于 2018-10-16 01:16:35 | 显示全部楼层
多謝樓主分享哆啦A夢電影
回复 支持 反对

使用道具 举报

签到天数: 1089 天

[LV.10]以坛为家III

5

主题

0

好友

2787

积分

风之精灵LV.1

Rank: 8Rank: 8Rank: 8Rank: 8

帖子
2334
雪点
5405
阅读权限
70
性别
在线时间
564 小时
注册时间
2015-4-28
最后登录
2018-11-15
发表于 2018-10-16 01:48:02 | 显示全部楼层
多啦A夢, 超正
謝謝
飘雪动漫社★缤纷动漫☆创意未来!
回复 支持 反对

使用道具 举报

签到天数: 1133 天

[LV.10]以坛为家III

23

主题

10

好友

3837

积分

风之精灵LV.2

小冰

Rank: 13Rank: 13Rank: 13

帖子
3545
雪点
1102
阅读权限
80
性别
保密
在线时间
1469 小时
注册时间
2012-12-29
最后登录
2018-11-15

桐人百变小樱李小狼知世

发表于 2018-10-16 09:10:21 | 显示全部楼层
就是合成吧,講到咁復雜
回复 支持 反对

使用道具 举报

签到天数: 1077 天

[LV.10]以坛为家III

18

主题

13

好友

5003

积分

风之精灵LV.2

Rank: 13Rank: 13Rank: 13

帖子
4318
雪点
8146
阅读权限
80
性别
在线时间
1186 小时
注册时间
2014-11-6
最后登录
2018-11-15

捐助会员

发表于 2018-10-16 10:06:59 | 显示全部楼层
终于等到新一部~~~谢谢楼主辛苦制作分享~~~
回复 支持 反对

使用道具 举报

签到天数: 1443 天

[LV.10]以坛为家III

6

主题

0

好友

2657

积分

风之精灵LV.1

Rank: 8Rank: 8Rank: 8Rank: 8

帖子
987
雪点
18273
阅读权限
70
性别
保密
在线时间
998 小时
注册时间
2014-1-30
最后登录
2018-11-15

捐助会员哈比夏露露

发表于 2018-10-16 10:10:41 | 显示全部楼层
支持所有多啦A夢的資源;多謝樓主無私分享
飘雪动漫社★缤纷动漫☆创意未来!
回复 支持 反对

使用道具 举报

签到天数: 52 天

[LV.5]常住居民I

1

主题

0

好友

637

积分

土之精灵LV.2

Rank: 6Rank: 6

帖子
472
雪点
1872
阅读权限
50
在线时间
26 小时
注册时间
2018-4-16
最后登录
2018-11-15
发表于 2018-10-16 10:21:05 | 显示全部楼层
好高兴,终于找到这个资源了
飘雪动漫社★缤纷动漫☆创意未来!
回复 支持 反对

使用道具 举报

签到天数: 35 天

[LV.5]常住居民I

2

主题

0

好友

670

积分

土之精灵LV.2

Rank: 6Rank: 6

帖子
549
雪点
2192
阅读权限
50
性别
保密
在线时间
49 小时
注册时间
2017-4-3
最后登录
2018-11-15
发表于 2018-10-16 10:56:12 | 显示全部楼层
15g坚野,正    记得有d福利部分   多谢分享
飘雪动漫社★缤纷动漫☆创意未来!
回复 支持 反对

使用道具 举报

签到天数: 1839 天

[LV.Master]伴坛终老

24

主题

5

好友

1万

积分

炎之精灵LV.1

Rank: 17Rank: 17Rank: 17Rank: 17Rank: 17

帖子
14145
雪点
5037
阅读权限
100
在线时间
2643 小时
注册时间
2013-3-22
最后登录
2018-11-15
发表于 2018-10-16 13:29:32 | 显示全部楼层
1980年代的不出BD,只有HDTV
回复 支持 反对

使用道具 举报

签到天数: 1 天

[LV.1]初来乍到

3

主题

1

好友

392

积分

土之精灵LV.1

Rank: 5Rank: 5Rank: 5

帖子
210
雪点
2146
阅读权限
40
性别
在线时间
67 小时
注册时间
2017-9-14
最后登录
2018-11-8
发表于 2018-10-17 00:44:58 | 显示全部楼层
多谢楼主分享,呢个系第几部剧场版?
飘雪动漫社★缤纷动漫☆创意未来!
回复 支持 反对

使用道具 举报

您需要登录后才可以回帖 登录 | 立即注册

本版积分规则

下载客户端
安卓客户端 IOS客户端

快来加入我们吧!!

官方QQ群号

飘雪动漫社

Powered by Discuz! X3.4© 2001-2017 Comsenz Inc.

手机版| 小黑屋| Archiver| 飘雪动漫社

GMT+8, 2018-11-15 21:38 , Processed in 0.124516 second(s), 40 queries , MemCache On.