找回密码
 立即注册
快捷导航
发帖
飘盘 聊天 资讯 萌图 漫画 动画 规则 帮助 手机客户端 新手指南
查看: 299|回复: 22

[粤语动画] [哆啦A梦剧场版1987:大雄与龙骑士][1080i/HDTV/TS/国粤日三语/13.32GB]

  [复制链接]

签到天数: 119 天

[LV.6]常住居民II

10

主题

1

好友

131

积分

水之精灵LV.3

Rank: 4Rank: 4

帖子
52
雪点
798
阅读权限
30
性别
在线时间
37 小时
注册时间
2015-11-27
最后登录
2018-12-17
发表于 2018-11-17 22:01:31 | 显示全部楼层 |阅读模式
片源由a574045075提供,在此感谢!
台配音轨、粤语音轨提取自VCD,已做调制匹配高清重制版。
如需转载,请注明出处!

[attach]114712[/attach]
◎译  名 哆啦A梦:大雄与龙骑士 / Doraemon: Nobita to Ryû no kishi
◎片  名 ドラえもん のび太と竜の骑士
◎年  代 1987
◎产  地 日本
◎类  别 科幻 / 动画 / 冒险
◎语  言 日语
◎上映日期 1987-03-14(日本)
◎IMDb评分  6.6/10 from 104 users
◎IMDb链接  ‍‍http://www.imdb.com/title/tt1147527
‍‍◎豆瓣评分 8.1/10 from 2199 users
‍‍◎豆瓣链接‍‍ ‍‍https://movie.douban.com/subject/1458895/
‍‍◎片  长 89分钟
◎导  演 芝山努 Tsutomu Shibayama
◎编  剧 藤子・F・不二雄 F. Fujio Fujiko
◎主  演 大山信代 Nobuyo Ohyama
      小原乃梨子 Noriko Ohara
      野村道子 Michiko Nomura
      立壁和也 Kazuya Tatekabe
      肝付兼太 Kaneta Kimotsuki

◎简  介  
‍‍
  平凡的一天,大雄却感到无比心烦。先是与小夫争论恐龙还存在与否时落败,接着零分试卷又面临妈妈的搜查。为了藏匿积攒下来的试卷,大雄和哆啦A梦利用道具在后山挖了一个巨大的洞。大雄欣喜过望,于是和小伙伴们建立起一个地下理想王国。与此同时,小夫的心情则无比烦闷,他无数次看见恐龙,甚至在地洞里看过奔跑的恐龙群。不久,小夫神秘失踪。得知他可能困在地下,大雄、哆啦A梦、胖虎、静香他们决定前去营救好友。令小伙伴们意外的是,地洞竟然连接着一个奇异的世界,这里不仅有各种各样的恐龙,还有一个神秘的王国。
  小伙伴们受到地下王国的热情接待,并最终找到小夫。但偶然的机缘,他们得知地下王国正在进行一项神秘的计划……‍‍‍‍‍‍‍‍‍‍‍‍

[attach]114713[/attach]
[attach]114714[/attach]
[attach]114715[/attach]
  1. General
  2. ID                          : 1 (0x1)
  3. Complete name               : J:\Doraemon Nobita and the Knights on Dinosaurs 1987 HDTV 1080i MPEG-2 3Audio-doraemon.ts
  4. Format                      : MPEG-TS
  5. File size                   : 13.3 GiB
  6. Duration                    : 1 h 30 min
  7. Overall bit rate mode       : Variable
  8. Overall bit rate            : 21.0 Mb/s
  9. Maximum Overall bit rate    : 35.5 Mb/s

  10. Video
  11. ID                          : 4113 (0x1011)
  12. Menu ID                     : 1 (0x1)
  13. Format                      : MPEG Video
  14. Format version              : Version 2
  15. Format profile              : Main@High
  16. Format settings             : CustomMatrix / BVOP
  17. Format settings, BVOP       : Yes
  18. Format settings, Matrix     : Custom
  19. Format settings, GOP        : Variable
  20. Format settings, picture st : Frame
  21. Codec ID                    : 2
  22. Duration                    : 1 h 30 min
  23. Bit rate mode               : Variable
  24. Width                       : 1 920 pixels
  25. Height                      : 1 080 pixels
  26. Display aspect ratio        : 16:9
  27. Frame rate                  : 29.970 (30000/1001) FPS
  28. Color space                 : YUV
  29. Chroma subsampling          : 4:2:0
  30. Bit depth                   : 8 bits
  31. Scan type                   : Interlaced
  32. Scan order                  : Top Field First
  33. Compression mode            : Lossy
  34. Time code of first frame    : 00:00:00:00
  35. Time code source            : Group of pictures header
  36. GOP, Open/Closed            : Open
  37. Color primaries             : BT.709
  38. Transfer characteristics    : BT.709
  39. Matrix coefficients         : BT.709

  40. Audio #1
  41. ID                          : 4352 (0x1100)
  42. Menu ID                     : 1 (0x1)
  43. Format                      : AAC LC
  44. Format/Info                 : Advanced Audio Codec Low Complexity
  45. Format version              : Version 2
  46. Muxing mode                 : ADTS
  47. Codec ID                    : 15-2
  48. Duration                    : 1 h 30 min
  49. Bit rate mode               : Variable
  50. Channel(s)                  : 2 channels
  51. Channel layout              : L R
  52. Sampling rate               : 48.0 kHz
  53. Frame rate                  : 46.875 FPS (1024 SPF)
  54. Compression mode            : Lossy
  55. Language                    : Japanese

  56. Audio #2
  57. ID                          : 4353 (0x1101)
  58. Menu ID                     : 1 (0x1)
  59. Format                      : AC-3
  60. Format/Info                 : Audio Coding 3
  61. Commercial name             : Dolby Digital
  62. Codec ID                    : 129
  63. Duration                    : 1 h 30 min
  64. Bit rate mode               : Constant
  65. Bit rate                    : 224 kb/s
  66. Channel(s)                  : 2 channels
  67. Channel layout              : L R
  68. Sampling rate               : 48.0 kHz
  69. Frame rate                  : 31.250 FPS (1536 SPF)
  70. Bit depth                   : 16 bits
  71. Compression mode            : Lossy
  72. Stream size                 : 146 MiB (1%)
  73. Language                    : Chinese
  74. Service kind                : Complete Main

  75. Audio #3
  76. ID                          : 4354 (0x1102)
  77. Menu ID                     : 1 (0x1)
  78. Format                      : AC-3
  79. Format/Info                 : Audio Coding 3
  80. Commercial name             : Dolby Digital
  81. Codec ID                    : 129
  82. Duration                    : 1 h 30 min
  83. Bit rate mode               : Constant
  84. Bit rate                    : 192 kb/s
  85. Channel(s)                  : 2 channels
  86. Channel layout              : L R
  87. Sampling rate               : 48.0 kHz
  88. Frame rate                  : 31.250 FPS (1536 SPF)
  89. Bit depth                   : 16 bits
  90. Compression mode            : Lossy
  91. Stream size                 : 125 MiB (1%)
  92. Language                    : Chinese
  93. Service kind                : Complete Main‍‍
复制代码

购买主题 已有 7 人购买  本主题需向作者支付 5 雪点 才能浏览
飘雪动漫社★缤纷动漫☆创意未来!

签到天数: 1499 天

[LV.10]以坛为家III

19

主题

0

好友

1万

积分

炎之精灵LV.2

人生如戏,全靠演技 ~

Rank: 17Rank: 17Rank: 17Rank: 17Rank: 17

帖子
18429
雪点
811
阅读权限
110
性别
在线时间
914 小时
注册时间
2014-7-31
最后登录
2018-12-18

百变小樱知世李小狼木之本樱基路仔だんご大家族彭格列黑手党阪本先生初音未来巡音露卡Haru櫻乃★丶见崎鸣風穴あける☆アリア侵略!乌贼娘女王控水の人鱼松前緒花松前緒花骑士王Saber悪魔の白娅みほの梦想夢想の的愛~靈犀棚町薰Shiny Gift坂田銀時神樂志村新八定春女仆玛利亚朝风理沙花菱美希瀨川泉紫原敦黄濑凉太绿间真太郎黑子哲也哈比夏露露波波乔巴西雅爾·法多姆海貝梦想の的爱~初衷冈崎朋也莱.马斯丹森島遙L播摩拳儿桂小太郎爱德华.艾力克艾尔凡斯.艾力克春风千樱安城鸣子赤司征十郎羅羅諾亞卓洛绫崎飒三千院凪

发表于 2018-11-17 22:11:01 | 显示全部楼层
还是旧版的画风经典
回复 支持 反对

使用道具 举报

签到天数: 1771 天

[LV.Master]伴坛终老

28

主题

4

好友

1万

积分

炎之精灵LV.1

Rank: 17Rank: 17Rank: 17Rank: 17Rank: 17

帖子
10557
雪点
5100
阅读权限
100
性别
保密
在线时间
1220 小时
注册时间
2013-11-13
最后登录
2018-12-18
发表于 2018-11-17 22:45:15 | 显示全部楼层
这部我小时候都不知道看了 几多次了 支持
回复 支持 反对

使用道具 举报

签到天数: 702 天

[LV.9]以坛为家II

13

主题

3

好友

3205

积分

风之精灵LV.2

Rank: 13Rank: 13Rank: 13

帖子
3180
雪点
288
阅读权限
80
性别
在线时间
809 小时
注册时间
2013-5-7
最后登录
2018-12-18
发表于 2018-11-17 23:29:41 | 显示全部楼层
文件好大,期待《大雄的一千零一夜》高清。
飘雪动漫社★缤纷动漫☆创意未来!
回复 支持 反对

使用道具 举报

签到天数: 1606 天

[LV.Master]伴坛终老

97

主题

6

好友

2万

积分

炎之精灵LV.3

Rank: 17Rank: 17Rank: 17Rank: 17Rank: 17

帖子
22145
雪点
10985
阅读权限
120
性别
保密
在线时间
2378 小时
注册时间
2014-4-6
最后登录
2018-12-19
发表于 2018-11-18 01:24:41 | 显示全部楼层
太大了,纯支持一下!
飘雪动漫社★缤纷动漫☆创意未来!
回复 支持 反对

使用道具 举报

签到天数: 1528 天

[LV.Master]伴坛终老

500

主题

54

好友

8万

积分

精灵王

Rank: 17Rank: 17Rank: 17Rank: 17Rank: 17

帖子
80779
雪点
10683
阅读权限
130
在线时间
9942 小时
注册时间
2014-5-26
最后登录
2018-12-19
发表于 2018-11-18 01:49:57 | 显示全部楼层
原來,仲有舊版哆啦A夢嘅電影嘅!辛苦曬整出來分享
回复 支持 反对

使用道具 举报

签到天数: 1008 天

[LV.10]以坛为家III

1

主题

0

好友

834

积分

土之精灵LV.3

Rank: 7Rank: 7Rank: 7

帖子
656
雪点
2166
阅读权限
60
性别
保密
在线时间
348 小时
注册时间
2012-12-13
最后登录
2018-12-18
发表于 2018-11-18 03:36:18 | 显示全部楼层
又一好卡通啊,支持
飘雪动漫社★缤纷动漫☆创意未来!
回复 支持 反对

使用道具 举报

签到天数: 409 天

[LV.9]以坛为家II

15

主题

0

好友

2497

积分

风之精灵LV.1

Rank: 8Rank: 8Rank: 8Rank: 8

帖子
2027
雪点
5532
阅读权限
70
在线时间
929 小时
注册时间
2017-9-14
最后登录
2018-12-19
发表于 2018-11-18 04:20:48 | 显示全部楼层
多謝分享高清叮噹
飘雪动漫社★缤纷动漫☆创意未来!
回复 支持 反对

使用道具 举报

签到天数: 528 天

[LV.9]以坛为家II

216

主题

0

好友

1万

积分

炎之精灵LV.1

Rank: 17Rank: 17Rank: 17Rank: 17Rank: 17

帖子
13516
雪点
216
阅读权限
100
性别
保密
在线时间
838 小时
注册时间
2017-4-20
最后登录
2018-12-18
发表于 2018-11-18 08:51:30 | 显示全部楼层
舊版難得,多謝分享
飘雪动漫社★缤纷动漫☆创意未来!
回复 支持 反对

使用道具 举报

签到天数: 1871 天

[LV.Master]伴坛终老

24

主题

5

好友

1万

积分

炎之精灵LV.1

Rank: 17Rank: 17Rank: 17Rank: 17Rank: 17

帖子
14512
雪点
1197
阅读权限
100
在线时间
2730 小时
注册时间
2013-3-22
最后登录
2018-12-18
发表于 2018-11-18 08:52:24 | 显示全部楼层
0分的试卷!
回复 支持 反对

使用道具 举报

您需要登录后才可以回帖 登录 | 立即注册

本版积分规则

下载客户端
安卓客户端 IOS客户端

快来加入我们吧!!

官方QQ群号

飘雪动漫社

Powered by Discuz! X3.4© 2001-2017 Comsenz Inc.

手机版| 小黑屋| Archiver| 飘雪动漫社

GMT+8, 2018-12-19 04:22 , Processed in 0.101247 second(s), 42 queries , MemCache On.