找回密码
 立即注册
快捷导航
发帖
飘盘 聊天 资讯 萌图 漫画 动画 规则 帮助 手机客户端 新手指南
查看: 936|回复: 132

[百度网盘] [转载][七龙珠/七龍珠][日语/双粤语/双国语][简繁中字][DVDRip.1280x960p][153集全]

  [复制链接]

签到天数: 63 天

[LV.6]常住居民II

11

主题

0

好友

341

积分

土之精灵LV.1

Rank: 5Rank: 5Rank: 5

帖子
211
雪点
1124
阅读权限
40
性别
保密
在线时间
92 小时
注册时间
2019-1-12
最后登录
2019-3-24
发表于 2019-2-14 18:48:31 | 显示全部楼层 |阅读模式
本帖最后由 风格 于 2019-2-24 05:32 编辑


影片名称:ドラゴンボール / 七龙珠 / Dragon Ball / 龙珠
影片集數:153集全
影片格式:DVDRip.1280x960p.x264.mkv
语  言:日语 / J2台粤语(默认) / DVD粤语 / 台配国语 / 辽艺国语
字  幕:J2台繁体字幕(默认) / 简体中文 / 繁体中文
存放网盘:百度网盘 永久分享链接
资源来源:
全153集的视频&日语直接使用自:드래곤볼 (Dragonball) 1~153화 (1280x960)
磁力链接:magnet:?xt=urn:btih:6A81F3ABFFE6C87082D9F06497FB7F0596C95FE3
全153集的双粤语&J2台字幕直接使用自:chrisrex@飘雪动漫社 的合成版
全153集的双国语直接使用自:fanfan676@灵感工作室 的合成版
全153集的简繁中字直接使用自:hhx1228@字幕库 的分享

感谢以上素材作者的辛苦制作和分享!
【內容簡介】:
  很久很久以前,曾流传着这样一个传说:世界各地散落着七颗龙珠,只要集齐这些珠子,就可召唤出神龙,而神龙可以帮助你实现任何一个愿望。
  住在深山中的小悟空本领高强,偶然的机会他随时尚少女布尔玛走出大山,四处寻找传说中的龙珠。期间碰上好色的鬼仙人与乌龙、一碰女人就面红耳赤的乐平、自大的小和尚克林,经历了各种各样的艰险和奇遇,也惹出一连串爆笑的故事。当然还有许多邪恶的家伙为了满足私欲寻找龙珠,与小悟空他们展开了连番激斗……
  根据鸟山明同名漫画改编。













  1. General
  2. Unique ID                      : 153845387789995335673106261490636031604 (0x73BD8B3E047A6D2483B52D7D2EEE0674)
  3. Complete name                  : 153.mkv
  4. Format                         : Matroska
  5. Format version                 : Version 4
  6. File size                      : 455 MiB
  7. Duration                       : 24 min 8 s
  8. Overall bit rate               : 2 636 kb/s
  9. Encoded date                   : UTC 2019-02-13 20:10:42
  10. Writing application            : mkvmerge v31.0.0 ('Dolores In A Shoestand') 64-bit
  11. Writing library                : libebml v1.3.6 + libmatroska v1.4.9

  12. Video
  13. ID                             : 1
  14. Format                         : AVC
  15. Format/Info                    : Advanced Video Codec
  16. Format profile                 : High@L3.2
  17. Format settings                : CABAC / 3 Ref Frames
  18. Format settings, CABAC         : Yes
  19. Format settings, ReFrames      : 3 frames
  20. Codec ID                       : V_MPEG4/ISO/AVC
  21. Duration                       : 24 min 8 s
  22. Bit rate                       : 1 531 kb/s
  23. Width                          : 1 280 pixels
  24. Height                         : 960 pixels
  25. Display aspect ratio           : 4:3
  26. Frame rate mode                : Constant
  27. Frame rate                     : 23.976 (24000/1001) FPS
  28. Color space                    : YUV
  29. Chroma subsampling             : 4:2:0
  30. Bit depth                      : 8 bits
  31. Scan type                      : Progressive
  32. Bits/(Pixel*Frame)             : 0.052
  33. Stream size                    : 265 MiB (58%)
  34. Writing library                : x264 core 93 r1538bm bd72d46
  35. Encoding settings              : cabac=1 / ref=3 / deblock=1:0:0 / analyse=0x3:0x13 / me=umh / subme=7 / psy=1 / psy_rd=1.00:0.00 / mixed_ref=1 / me_range=16 / chroma_me=1 / trellis=1 / 8x8dct=1 / cqm=0 / deadzone=21,11 / fast_pskip=1 / chroma_qp_offset=-2 / threads=4 / sliced_threads=1 / slices=4 / nr=0 / decimate=1 / interlaced=0 / constrained_intra=0 / bframes=0 / wpredp=2 / keyint=250 / keyint_min=25 / scenecut=40 / intra_refresh=0 / rc_lookahead=40 / rc=2pass / mbtree=1 / bitrate=1531 / ratetol=1.0 / qcomp=0.60 / qpmin=10 / qpmax=51 / qpstep=4 / cplxblur=20.0 / qblur=0.5 / ip_ratio=1.40 / aq=1:1.00
  36. Default                        : Yes
  37. Forced                         : No

  38. Audio #1
  39. ID                             : 2
  40. Format                         : AC-3
  41. Format/Info                    : Audio Coding 3
  42. Commercial name                : Dolby Digital
  43. Codec ID                       : A_AC3
  44. Duration                       : 24 min 8 s
  45. Bit rate mode                  : Constant
  46. Bit rate                       : 256 kb/s
  47. Channel(s)                     : 2 channels
  48. Channel layout                 : L R
  49. Sampling rate                  : 48.0 kHz
  50. Frame rate                     : 31.250 FPS (1536 SPF)
  51. Bit depth                      : 16 bits
  52. Compression mode               : Lossy
  53. Stream size                    : 44.2 MiB (10%)
  54. Title                          : 日语
  55. Service kind                   : Complete Main
  56. Default                        : No
  57. Forced                         : No

  58. Audio #2
  59. ID                             : 3
  60. Format                         : AAC LC
  61. Format/Info                    : Advanced Audio Codec Low Complexity
  62. Codec ID                       : A_AAC-2
  63. Duration                       : 24 min 8 s
  64. Bit rate                       : 217 kb/s
  65. Channel(s)                     : 2 channels
  66. Channel layout                 : L R
  67. Sampling rate                  : 48.0 kHz
  68. Frame rate                     : 46.875 FPS (1024 SPF)
  69. Compression mode               : Lossy
  70. Stream size                    : 37.5 MiB (8%)
  71. Title                          : 粤语(J2台)
  72. Default                        : Yes
  73. Forced                         : No

  74. Audio #3
  75. ID                             : 4
  76. Format                         : AAC LC
  77. Format/Info                    : Advanced Audio Codec Low Complexity
  78. Codec ID                       : A_AAC-2
  79. Duration                       : 24 min 8 s
  80. Bit rate                       : 242 kb/s
  81. Channel(s)                     : 2 channels
  82. Channel layout                 : L R
  83. Sampling rate                  : 48.0 kHz
  84. Frame rate                     : 46.875 FPS (1024 SPF)
  85. Compression mode               : Lossy
  86. Stream size                    : 41.7 MiB (9%)
  87. Title                          : 粤语(DVD)
  88. Default                        : No
  89. Forced                         : No

  90. Audio #4
  91. ID                             : 5
  92. Format                         : MPEG Audio
  93. Format version                 : Version 1
  94. Format profile                 : Layer 3
  95. Format settings                : Joint stereo
  96. Codec ID                       : A_MPEG/L3
  97. Codec ID/Hint                  : MP3
  98. Duration                       : 24 min 8 s
  99. Bit rate mode                  : Constant
  100. Bit rate                       : 192 kb/s
  101. Channel(s)                     : 2 channels
  102. Sampling rate                  : 48.0 kHz
  103. Frame rate                     : 41.667 FPS (1152 SPF)
  104. Compression mode               : Lossy
  105. Stream size                    : 33.2 MiB (7%)
  106. Title                          : 国语(台配)
  107. Default                        : No
  108. Forced                         : No

  109. Audio #5
  110. ID                             : 6
  111. Format                         : AC-3
  112. Format/Info                    : Audio Coding 3
  113. Commercial name                : Dolby Digital
  114. Codec ID                       : A_AC3
  115. Duration                       : 24 min 8 s
  116. Bit rate mode                  : Constant
  117. Bit rate                       : 192 kb/s
  118. Channel(s)                     : 2 channels
  119. Channel layout                 : L R
  120. Sampling rate                  : 44.1 kHz
  121. Frame rate                     : 28.711 FPS (1536 SPF)
  122. Bit depth                      : 16 bits
  123. Compression mode               : Lossy
  124. Stream size                    : 33.2 MiB (7%)
  125. Title                          : 国语(辽艺)
  126. Service kind                   : Complete Main
  127. Default                        : No
  128. Forced                         : No

  129. Text #1
  130. ID                             : 7
  131. Format                         : VobSub
  132. Muxing mode                    : zlib
  133. Codec ID                       : S_VOBSUB
  134. Codec ID/Info                  : Picture based subtitle format used on DVDs
  135. Duration                       : 22 min 0 s
  136. Bit rate                       : 2 592 b/s
  137. Count of elements              : 255
  138. Stream size                    : 418 KiB (0%)
  139. Title                          : 繁体中文(J2台)
  140. Default                        : Yes
  141. Forced                         : No

  142. Text #2
  143. ID                             : 8
  144. Format                         : ASS
  145. Codec ID                       : S_TEXT/ASS
  146. Codec ID/Info                  : Advanced Sub Station Alpha
  147. Duration                       : 23 min 48 s
  148. Bit rate                       : 86 b/s
  149. Count of elements              : 295
  150. Compression mode               : Lossless
  151. Stream size                    : 15.1 KiB (0%)
  152. Title                          : 简体中文(对应日语)
  153. Default                        : No
  154. Forced                         : No

  155. Text #3
  156. ID                             : 9
  157. Format                         : ASS
  158. Codec ID                       : S_TEXT/ASS
  159. Codec ID/Info                  : Advanced Sub Station Alpha
  160. Duration                       : 23 min 48 s
  161. Bit rate                       : 86 b/s
  162. Count of elements              : 295
  163. Compression mode               : Lossless
  164. Stream size                    : 15.1 KiB (0%)
  165. Title                          : 繁体中文(对应日语)
  166. Default                        : No
  167. Forced                         : No
复制代码
游客,如果您要查看本帖隐藏内容请回复*升级为VIP免回复查看立即升级







飘雪动漫社★缤纷动漫☆创意未来!

签到天数: 435 天

[LV.9]以坛为家II

26

主题

1

好友

2473

积分

风之精灵LV.1

Rank: 8Rank: 8Rank: 8Rank: 8

帖子
2373
雪点
618
阅读权限
70
性别
保密
在线时间
2222 小时
注册时间
2014-8-9
最后登录
2019-3-24
发表于 2019-2-14 19:06:51 | 显示全部楼层
有粤语么?????
飘雪动漫社★缤纷动漫☆创意未来!
回复 支持 反对

使用道具 举报

签到天数: 63 天

[LV.6]常住居民II

11

主题

0

好友

341

积分

土之精灵LV.1

Rank: 5Rank: 5Rank: 5

帖子
211
雪点
1124
阅读权限
40
性别
保密
在线时间
92 小时
注册时间
2019-1-12
最后登录
2019-3-24
 楼主| 发表于 2019-2-14 19:11:10 | 显示全部楼层

有的,帖子描述的一样,因为没人分享粤语加国语的,所以我将它们封装在一起,方便观看!
飘雪动漫社★缤纷动漫☆创意未来!
回复 支持 反对

使用道具 举报

签到天数: 41 天

[LV.5]常住居民I

10

主题

0

好友

1387

积分

土之精灵LV.3

Rank: 7Rank: 7Rank: 7

帖子
75
雪点
15976
阅读权限
60
性别
保密
在线时间
181 小时
注册时间
2019-2-5
最后登录
2019-3-24
发表于 2019-2-14 22:47:15 | 显示全部楼层
看截图,清晰度应该为蓝光版吧
飘雪动漫社★缤纷动漫☆创意未来!
回复 支持 反对

使用道具 举报

签到天数: 142 天

[LV.7]常住居民III

2

主题

0

好友

919

积分

土之精灵LV.3

Rank: 7Rank: 7Rank: 7

帖子
721
雪点
3158
阅读权限
60
性别
保密
在线时间
94 小时
注册时间
2017-4-3
最后登录
2019-3-23
发表于 2019-2-14 23:02:36 | 显示全部楼层
我顶   犀鸠利   多谢分享
飘雪动漫社★缤纷动漫☆创意未来!
回复 支持 反对

使用道具 举报

签到天数: 41 天

[LV.5]常住居民I

10

主题

0

好友

1387

积分

土之精灵LV.3

Rank: 7Rank: 7Rank: 7

帖子
75
雪点
15976
阅读权限
60
性别
保密
在线时间
181 小时
注册时间
2019-2-5
最后登录
2019-3-24
发表于 2019-2-14 23:05:36 | 显示全部楼层
1.播放的音频问题:我的播放器默认播第1音频,为日语,不想换播放器,怎样解决?

2.个人喜欢DVD粤语(TVB的配音),能变成默认音频吗?


飘雪动漫社★缤纷动漫☆创意未来!
回复 支持 反对

使用道具 举报

签到天数: 109 天

[LV.6]常住居民II

1

主题

0

好友

64

积分

水之精灵LV.2

Rank: 3

帖子
20
雪点
241
阅读权限
20
性别
保密
在线时间
23 小时
注册时间
2018-11-14
最后登录
2019-3-23
发表于 2019-2-14 23:08:24 | 显示全部楼层
我好像没有看全过,先收藏
飘雪动漫社★缤纷动漫☆创意未来!
回复 支持 反对

使用道具 举报

签到天数: 491 天

[LV.9]以坛为家II

16

主题

0

好友

2960

积分

风之精灵LV.1

Rank: 8Rank: 8Rank: 8Rank: 8

帖子
2479
雪点
5661
阅读权限
70
在线时间
1133 小时
注册时间
2017-9-14
最后登录
2019-3-24
发表于 2019-2-14 23:09:04 | 显示全部楼层
畫質非常好,多謝分享
飘雪动漫社★缤纷动漫☆创意未来!
回复 支持 反对

使用道具 举报

签到天数: 63 天

[LV.6]常住居民II

11

主题

0

好友

341

积分

土之精灵LV.1

Rank: 5Rank: 5Rank: 5

帖子
211
雪点
1124
阅读权限
40
性别
保密
在线时间
92 小时
注册时间
2019-1-12
最后登录
2019-3-24
 楼主| 发表于 2019-2-14 23:13:39 | 显示全部楼层
至爱粤语 发表于 2019-2-14 22:47
看截图,清晰度应该为蓝光版吧

DVDRip,锐化的问题,同时有很强的降噪,色彩也可能调过
飘雪动漫社★缤纷动漫☆创意未来!
回复 支持 反对

使用道具 举报

签到天数: 63 天

[LV.6]常住居民II

11

主题

0

好友

341

积分

土之精灵LV.1

Rank: 5Rank: 5Rank: 5

帖子
211
雪点
1124
阅读权限
40
性别
保密
在线时间
92 小时
注册时间
2019-1-12
最后登录
2019-3-24
 楼主| 发表于 2019-2-14 23:15:20 | 显示全部楼层
至爱粤语 发表于 2019-2-14 23:05
1.播放的音频问题:我的播放器默认播第1音频,为日语,不想换播放器,怎样解决?

2.个人喜欢DVD粤语(TV ...

PC推荐用PotPlayer播放,电视推荐用KODI播放!也可以用MXPlayer
飘雪动漫社★缤纷动漫☆创意未来!
回复 支持 反对

使用道具 举报

您需要登录后才可以回帖 登录 | 立即注册

本版积分规则

下载客户端
安卓客户端 IOS客户端

快来加入我们吧!!

官方QQ群号

飘雪动漫社

Powered by Discuz! X3.4© 2001-2017 Comsenz Inc.

手机版| 小黑屋| Archiver| 飘雪动漫社

GMT+8, 2019-3-24 05:41 , Processed in 0.131476 second(s), 37 queries , MemCache On.