找回密码
 立即注册
快捷导航
发帖
飘盘 聊天 资讯 萌图 漫画 动画 规则 帮助 手机客户端 新手指南
查看: 175|回复: 12

[其他更多] [BT种子][转载][城市猎人][日语无字][BDRip.1440x1080p][51集全]

[复制链接]

签到天数: 63 天

[LV.6]常住居民II

11

主题

0

好友

340

积分

土之精灵LV.1

Rank: 5Rank: 5Rank: 5

帖子
210
雪点
1121
阅读权限
40
性别
保密
在线时间
92 小时
注册时间
2019-1-12
最后登录
2019-3-24
发表于 2019-3-5 06:52:12 | 显示全部楼层 |阅读模式
本帖最后由 风格 于 2019-3-5 06:55 编辑

转载自nyaa,感谢原制作者发布!

◎译  名 城市猎人/City Hunter
◎片  名 シティーハンター
◎年  代 1987
◎产  地 日本
◎类  别 动画
◎语  言 日语无字
◎上映日期 1987-04-06
◎豆瓣评分 8.7/10 from 2,172 users
◎集  数 51
◎片  长 23分钟
◎导  演 儿玉兼嗣 Kenji Kodama / 富永恒雄 Tominaga Tsuneo
◎编  剧 北条司 Tsukasa Hôjô
◎主  演 神谷明 Akira Kamiya
       麻上洋子 Yôko Asagami
       玄田哲章 Tesshô Genda
       潘惠子 Keiko Han
       原惠理子 Eriko Hara

◎标  签 动画 | 北条司 | 日本动画 | 日本 | 城市猎人 | 动漫 | 经典 | 童年回忆

◎简  介

  《城市猎人》TV动画共有4部,另有3话TV Special,4部分别是《城市猎人》、《城市猎人2》、《城市猎人3》与《城市猎人'91》,皆为读卖电视台与日升动画制作、日本电视系首播。
  城市猎人
  1987年4月6日-1988年3月28日期间首播,于19:00 - 19:30播放,共51集。
  城市猎人2
  1988年4月2日-1989年7月1日期间首播,于18:00 - 18:30播放,共63集。
  城市猎人3
  1989年10月15日 - 1990年1月21日期间首播,于19:00 - 19:30播放,共13集。
  城市猎人91
  1991年4月28日 - 1991年10月10日期间首播,前10集于19:00 - 19:30播放,后面3集于16:00 - 17:30播放,共13集。
  该漫画在正式连载前,作者北条司先后推出了《城市猎人 - XYZ》以及《城市猎人 - 双刃剑》两篇试验性短篇。因受到高度好评而终于在1985年—1991年期间正式长期连载与集英社旗下的《少年Jump周刊》杂志。
  1985年-1991年期间在日本播放过4季共140集电视动画。此外还有3部动画电影,3部动画特别篇,以及一部官方真人版电影。
  该作品以生动幽默的风格描述一位好色、身怀绝技而又有自身缺点、令人可爱又可恨,自称城市清道夫的冴羽獠(盗版时期港台曾译作:孟波[2];中国大陆曾译作:寒羽良)与他的同伴槙村香所组合的私家侦探事务所的故事。
  故事中想要联络城市猎人的方法是在新宿的留言板上写上暗号XYZ,如此一来城市猎人就会跟你连络,传说只帮助美女。
  何谓XYZ呢?XYZ是英文字母中的最后三个字母,意味着后面没了,我已经没有退路了的意思。







NonFilter / 2Pass - 10000 Kbps

本帖子中包含更多资源

您需要 登录 才可以下载或查看,没有帐号?立即注册

x
飘雪动漫社★缤纷动漫☆创意未来!

签到天数: 63 天

[LV.6]常住居民II

11

主题

0

好友

340

积分

土之精灵LV.1

Rank: 5Rank: 5Rank: 5

帖子
210
雪点
1121
阅读权限
40
性别
保密
在线时间
92 小时
注册时间
2019-1-12
最后登录
2019-3-24
 楼主| 发表于 2019-3-5 07:19:00 | 显示全部楼层
General
Unique ID                      : 284411164798582361365230123849897526350 (0xD5F7990EB00375A7334BC58EE6B0C44E)
Complete name                  : [Moozzi2] City Hunter BD-BOX - TV + SP\[Moozzi2] City Hunter - 01 (BD 1440x1080 x.264 Flac).mkv
Format                         : Matroska
Format version                 : Version 4
File size                      : 1.77 GiB
Duration                       : 24 min 35 s
Overall bit rate mode          : Variable
Overall bit rate               : 10.3 Mb/s
Encoded date                   : UTC 2019-02-28 23:14:47
Writing application            : mkvmerge v28.2.0 ('The Awakening') 64-bit
Writing library                : libebml v1.3.6 + libmatroska v1.4.9

Video
ID                             : 1
Format                         : AVC
Format/Info                    : Advanced Video Codec
Format profile                 : High@L4
Format settings                : CABAC / 4 Ref Frames
Format settings, CABAC         : Yes
Format settings, ReFrames      : 4 frames
Codec ID                       : V_MPEG4/ISO/AVC
Duration                       : 24 min 35 s
Bit rate                       : 10 000 kb/s
Width                          : 1 440 pixels
Height                         : 1 080 pixels
Display aspect ratio           : 4:3
Frame rate mode                : Constant
Frame rate                     : 23.976 (24000/1001) FPS
Color space                    : YUV
Chroma subsampling             : 4:2:0
Bit depth                      : 8 bits
Scan type                      : Progressive
Bits/(Pixel*Frame)             : 0.268
Stream size                    : 1.72 GiB (97%)
Writing library                : x264 core 155 r2901 7d0ff22
Encoding settings              : cabac=1 / ref=4 / deblock=1:-1:-1 / analyse=0x3:0x113 / me=umh / subme=8 / psy=1 / psy_rd=1.00:0.00 / mixed_ref=1 / me_range=24 / chroma_me=1 / trellis=0 / 8x8dct=1 / cqm=0 / deadzone=21,11 / fast_pskip=0 / chroma_qp_offset=-2 / threads=34 / lookahead_threads=5 / sliced_threads=0 / nr=0 / decimate=1 / interlaced=0 / bluray_compat=0 / stitchable=1 / constrained_intra=0 / bframes=3 / b_pyramid=2 / b_adapt=2 / b_bias=0 / direct=1 / weightb=1 / open_gop=0 / weightp=2 / keyint=240 / keyint_min=23 / scenecut=40 / intra_refresh=0 / rc_lookahead=40 / rc=2pass / mbtree=1 / bitrate=10000 / ratetol=1.0 / qcomp=0.60 / qpmin=0 / qpmax=69 / qpstep=4 / cplxblur=20.0 / qblur=0.5 / ip_ratio=1.40 / aq=1:1.00
Language                       : Japanese
Default                        : Yes
Forced                         : No

Audio
ID                             : 2
Format                         : FLAC
Format/Info                    : Free Lossless Audio Codec
Codec ID                       : A_FLAC
Duration                       : 24 min 35 s
Bit rate mode                  : Variable
Bit rate                       : 303 kb/s
Channel(s)                     : 2 channels
Channel layout                 : L R
Sampling rate                  : 48.0 kHz
Frame rate                     : 11.719 FPS (4096 SPF)
Bit depth                      : 16 bits
Compression mode               : Lossless
Stream size                    : 53.4 MiB (3%)
Writing library                : libFLAC 1.3.2 (UTC 2017-01-01)
Language                       : Japanese
Default                        : Yes
Forced                         : No
飘雪动漫社★缤纷动漫☆创意未来!
回复 支持 反对

使用道具 举报

签到天数: 1016 天

[LV.10]以坛为家III

7

主题

1

好友

1786

积分

风之精灵LV.1

Rank: 8Rank: 8Rank: 8Rank: 8

帖子
1234
雪点
6757
阅读权限
70
性别
在线时间
448 小时
注册时间
2012-6-15
最后登录
2019-3-22
发表于 2019-3-5 10:44:49 | 显示全部楼层
以前曾經很喜歡看城市獵人的
飘雪动漫社★缤纷动漫☆创意未来!
回复 支持 反对

使用道具 举报

签到天数: 400 天

[LV.9]以坛为家II

210

主题

2

好友

2560

积分

风之精灵LV.1

Rank: 8Rank: 8Rank: 8Rank: 8

帖子
2175
雪点
2478
阅读权限
70
在线时间
544 小时
注册时间
2014-3-10
最后登录
2019-3-23
发表于 2019-3-5 11:59:13 | 显示全部楼层
天~呀點解無字幕呀
回复 支持 反对

使用道具 举报

签到天数: 1628 天

[LV.Master]伴坛终老

75

主题

1

好友

1603

积分

风之精灵LV.1

Rank: 8Rank: 8Rank: 8Rank: 8

帖子
718
雪点
10376
阅读权限
70
性别
在线时间
441 小时
注册时间
2012-7-28
最后登录
2019-3-23
发表于 2019-3-5 13:01:25 | 显示全部楼层
这个字幕要自己去找了
飘雪动漫社★缤纷动漫☆创意未来!
回复 支持 反对

使用道具 举报

签到天数: 1087 天

[LV.10]以坛为家III

12

主题

1

好友

7258

积分

风之精灵LV.3

Rank: 15Rank: 15Rank: 15

帖子
6775
雪点
5551
阅读权限
90
性别
在线时间
575 小时
注册时间
2013-8-20
最后登录
2019-3-23
发表于 2019-3-5 13:04:15 | 显示全部楼层
太清晰了,有粤语就完美
飘雪动漫社★缤纷动漫☆创意未来!
回复 支持 反对

使用道具 举报

签到天数: 63 天

[LV.6]常住居民II

11

主题

0

好友

340

积分

土之精灵LV.1

Rank: 5Rank: 5Rank: 5

帖子
210
雪点
1121
阅读权限
40
性别
保密
在线时间
92 小时
注册时间
2019-1-12
最后登录
2019-3-24
 楼主| 发表于 2019-3-5 16:55:43 | 显示全部楼层
本帖最后由 风格 于 2019-3-5 17:43 编辑
ministry 发表于 2019-3-5 11:59
天~呀點解無字幕呀

生肉就这样,需要等高手合成!
飘雪动漫社★缤纷动漫☆创意未来!
回复 支持 反对

使用道具 举报

签到天数: 5 天

[LV.2]偶尔看看I

 成长值: 27610

168

主题

19

好友

1909

积分

贵宾

Rank: 25Rank: 25Rank: 25Rank: 25Rank: 25

帖子
1350
雪点
3555
阅读权限
150
性别
在线时间
1599 小时
注册时间
2012-6-28
最后登录
2019-3-23
发表于 2019-3-5 18:27:31 | 显示全部楼层
DVD粵語合成版已經有BBQ父子做了,還在合藍光版中!
飘雪动漫社★缤纷动漫☆创意未来!
回复 支持 反对

使用道具 举报

签到天数: 1958 天

[LV.Master]伴坛终老

25

主题

5

好友

1万

积分

炎之精灵LV.2

Rank: 17Rank: 17Rank: 17Rank: 17Rank: 17

帖子
15754
雪点
1522
阅读权限
110
在线时间
2986 小时
注册时间
2013-3-22
最后登录
2019-3-23
发表于 2019-3-5 18:47:25 | 显示全部楼层
无字就可惜了
回复 支持 反对

使用道具 举报

签到天数: 953 天

[LV.10]以坛为家III

16

主题

1

好友

6602

积分

风之精灵LV.3

Rank: 15Rank: 15Rank: 15

帖子
6461
雪点
1574
阅读权限
90
在线时间
599 小时
注册时间
2016-3-13
最后登录
2019-3-24
发表于 2019-3-5 19:14:03 | 显示全部楼层
畫質明顯好咗!
飘雪动漫社★缤纷动漫☆创意未来!
回复 支持 反对

使用道具 举报

您需要登录后才可以回帖 登录 | 立即注册

本版积分规则

下载客户端
安卓客户端 IOS客户端

快来加入我们吧!!

官方QQ群号

飘雪动漫社

Powered by Discuz! X3.4© 2001-2017 Comsenz Inc.

手机版| 小黑屋| Archiver| 飘雪动漫社

GMT+8, 2019-3-24 01:55 , Processed in 0.135008 second(s), 38 queries , MemCache On.