找回密码
 立即注册
快捷导航
发帖
飘盘 聊天 资讯 萌图 漫画 动画 规则 帮助 手机客户端 新手指南
查看: 265|回复: 10

[其他更多] [BT种子][转载][忍空/NINKU][日语无字][BDRip.1540x1080p][55集全]

[复制链接]

签到天数: 63 天

[LV.6]常住居民II

11

主题

0

好友

341

积分

土之精灵LV.1

Rank: 5Rank: 5Rank: 5

帖子
211
雪点
1124
阅读权限
40
性别
保密
在线时间
92 小时
注册时间
2019-1-12
最后登录
2019-3-24
发表于 2019-3-5 07:29:25 | 显示全部楼层 |阅读模式
转载自Nyaa,感谢原制作者发布!


◎译  名 忍空
◎片  名 NINKU -忍空-
◎年  代 1995
◎产  地 日本
◎类  别 剧情/动作/动画
◎语  言 日语无字
◎上映日期 1995-01-14(日本)
◎豆瓣评分 0/10 from 0 users
◎豆瓣链接 https://douban.com/subject/4280488/
◎集  数 55
◎导  演 阿部紀之
◎编  剧 橋本裕志 / 上代務 / 田村竜 / 藤田伸三 / おおいとしのぶ
◎主  演 松本梨香
       真殿光昭
       小杉十郎太
       松本保典
       石田彰
       大塚明夫
       鈴木勝美
       林原めぐみ
       小林清志
       村松康雄
       宝亀克寿
       森川智之
       氷上恭子
       前田敏子
       佐々木望
       平田広明
       草尾毅
       堀内賢雄
       中田和宏
       緑川光


◎标  签 动画 | 日本动画 | 日本 | 动漫 | 顶顶顶顶顶顶顶顶顶顶顶顶顶顶顶顶顶顶顶顶顶顶 | 西尾鉄也 | 电视动画 | 日本电视剧


◎简  介


  先の大戦が終わり、時代はEDO、戦後の混乱はいまだおさまらず、人々は軍事将軍率いる軍事政府の圧政に苦しんでいた。
  元・忍空の風助は、友達のペンギン・ヒロユキと旅する途中、昔の仲間である藍眺、橙次とその妹・里穂子に出会い、5人はそろって旅をすることになる。
  だがその旅はままならず、謎の刺客に阻まれる。5人に襲いかかる刺客とは恐るべき力と技を持ち、人の心を持たない戦士たちだ。
  それに対し、風助、藍眺、橙次は鍛え抜いた忍空技と、強い絆で立ち向かい、次々と敵を倒してゆく。果たして、敵の刺客の目的は?
  なぜ風助たちを狙うのか? そしてそれを裏で操る政府の三大軍師の正体とは? 数々の謎と野望が、混乱の時代を駆けめぐる!!








  1. General
  2. Unique ID                      : 241791824014664910529783015628089791213 (0xB5E76952AD0C634DB8E872CD384312ED)
  3. Complete name                  : [Moozzi2] Ninku BD-BOX - TV + Movie + OVA\[Moozzi2] Ninku - 01 (BD 1540x1080 x.264 Flac).mkv
  4. Format                         : Matroska
  5. Format version                 : Version 4
  6. File size                      : 1.57 GiB
  7. Duration                       : 23 min 40 s
  8. Overall bit rate mode          : Variable
  9. Overall bit rate               : 9 508 kb/s
  10. Encoded date                   : UTC 2019-02-27 09:36:29
  11. Writing application            : mkvmerge v28.2.0 ('The Awakening') 64-bit
  12. Writing library                : libebml v1.3.6 + libmatroska v1.4.9

  13. Video
  14. ID                             : 1
  15. Format                         : AVC
  16. Format/Info                    : Advanced Video Codec
  17. Format profile                 : High@L4
  18. Format settings                : CABAC / 4 Ref Frames
  19. Format settings, CABAC         : Yes
  20. Format settings, ReFrames      : 4 frames
  21. Codec ID                       : V_MPEG4/ISO/AVC
  22. Duration                       : 23 min 40 s
  23. Bit rate                       : 9 000 kb/s
  24. Width                          : 1 540 pixels
  25. Height                         : 1 080 pixels
  26. Display aspect ratio           : 1.426
  27. Frame rate mode                : Constant
  28. Frame rate                     : 23.976 (24000/1001) FPS
  29. Color space                    : YUV
  30. Chroma subsampling             : 4:2:0
  31. Bit depth                      : 8 bits
  32. Scan type                      : Progressive
  33. Bits/(Pixel*Frame)             : 0.226
  34. Stream size                    : 1.49 GiB (95%)
  35. Writing library                : x264 core 155 r2901 7d0ff22
  36. Encoding settings              : cabac=1 / ref=4 / deblock=1:-1:-1 / analyse=0x3:0x113 / me=umh / subme=8 / psy=1 / psy_rd=1.00:0.00 / mixed_ref=1 / me_range=24 / chroma_me=1 / trellis=1 / 8x8dct=1 / cqm=0 / deadzone=21,11 / fast_pskip=0 / chroma_qp_offset=-2 / threads=34 / lookahead_threads=5 / sliced_threads=0 / nr=0 / decimate=1 / interlaced=0 / bluray_compat=0 / stitchable=1 / constrained_intra=0 / bframes=3 / b_pyramid=2 / b_adapt=2 / b_bias=0 / direct=1 / weightb=1 / open_gop=0 / weightp=2 / keyint=240 / keyint_min=23 / scenecut=40 / intra_refresh=0 / rc_lookahead=40 / rc=2pass / mbtree=1 / bitrate=9000 / ratetol=1.0 / qcomp=0.60 / qpmin=0 / qpmax=69 / qpstep=4 / cplxblur=20.0 / qblur=0.5 / ip_ratio=1.40 / aq=1:1.00
  37. Language                       : Japanese
  38. Default                        : Yes
  39. Forced                         : No

  40. Audio
  41. ID                             : 2
  42. Format                         : FLAC
  43. Format/Info                    : Free Lossless Audio Codec
  44. Codec ID                       : A_FLAC
  45. Duration                       : 23 min 40 s
  46. Bit rate mode                  : Variable
  47. Bit rate                       : 508 kb/s
  48. Channel(s)                     : 2 channels
  49. Channel layout                 : L R
  50. Sampling rate                  : 48.0 kHz
  51. Frame rate                     : 11.719 FPS (4096 SPF)
  52. Bit depth                      : 16 bits
  53. Compression mode               : Lossless
  54. Stream size                    : 86.0 MiB (5%)
  55. Writing library                : libFLAC 1.3.2 (UTC 2017-01-01)
  56. Language                       : Japanese
  57. Default                        : Yes
  58. Forced                         : No
复制代码



NonFilter / 2Pass - 9000 Kbps


本帖子中包含更多资源

您需要 登录 才可以下载或查看,没有帐号?立即注册

x
飘雪动漫社★缤纷动漫☆创意未来!

签到天数: 218 天

[LV.7]常住居民III

8

主题

1

好友

1174

积分

土之精灵LV.3

Rank: 7Rank: 7Rank: 7

帖子
277
雪点
11019
阅读权限
60
性别
在线时间
499 小时
注册时间
2018-5-4
最后登录
2019-3-23
发表于 2019-3-5 08:56:47 | 显示全部楼层
本帖最后由 暗影之月 于 2019-3-5 09:55 编辑

蓝光版支持下.
感谢分享



飘雪动漫社★缤纷动漫☆创意未来!
回复 支持 反对

使用道具 举报

签到天数: 63 天

[LV.6]常住居民II

11

主题

0

好友

341

积分

土之精灵LV.1

Rank: 5Rank: 5Rank: 5

帖子
211
雪点
1124
阅读权限
40
性别
保密
在线时间
92 小时
注册时间
2019-1-12
最后登录
2019-3-24
 楼主| 发表于 2019-3-5 09:02:48 | 显示全部楼层
暗影之月 发表于 2019-3-5 08:56
蓝光版支持下.
PS:转载的资源不能设置收费的

哪有收费,附件不能免费下载跟我无关
飘雪动漫社★缤纷动漫☆创意未来!
回复 支持 反对

使用道具 举报

签到天数: 218 天

[LV.7]常住居民III

8

主题

1

好友

1174

积分

土之精灵LV.3

Rank: 7Rank: 7Rank: 7

帖子
277
雪点
11019
阅读权限
60
性别
在线时间
499 小时
注册时间
2018-5-4
最后登录
2019-3-23
发表于 2019-3-5 09:15:06 | 显示全部楼层
风格 发表于 2019-3-5 09:02
哪有收费,附件不能免费下载跟我无关

不好意思,那是我自己搞错了.
飘雪动漫社★缤纷动漫☆创意未来!
回复 支持 反对

使用道具 举报

签到天数: 1016 天

[LV.10]以坛为家III

7

主题

1

好友

1786

积分

风之精灵LV.1

Rank: 8Rank: 8Rank: 8Rank: 8

帖子
1234
雪点
6757
阅读权限
70
性别
在线时间
448 小时
注册时间
2012-6-15
最后登录
2019-3-22
发表于 2019-3-5 10:44:22 | 显示全部楼层
有時間有空都會看看的
飘雪动漫社★缤纷动漫☆创意未来!
回复 支持 反对

使用道具 举报

签到天数: 1087 天

[LV.10]以坛为家III

12

主题

1

好友

7258

积分

风之精灵LV.3

Rank: 15Rank: 15Rank: 15

帖子
6775
雪点
5551
阅读权限
90
性别
在线时间
575 小时
注册时间
2013-8-20
最后登录
2019-3-23
发表于 2019-3-5 13:04:44 | 显示全部楼层
这个版本很棒
飘雪动漫社★缤纷动漫☆创意未来!
回复 支持 反对

使用道具 举报

签到天数: 1958 天

[LV.Master]伴坛终老

25

主题

5

好友

1万

积分

炎之精灵LV.2

Rank: 17Rank: 17Rank: 17Rank: 17Rank: 17

帖子
15754
雪点
1522
阅读权限
110
在线时间
2986 小时
注册时间
2013-3-22
最后登录
2019-3-23
发表于 2019-3-5 18:47:44 | 显示全部楼层
无字也支持
回复 支持 反对

使用道具 举报

签到天数: 953 天

[LV.10]以坛为家III

16

主题

1

好友

6602

积分

风之精灵LV.3

Rank: 15Rank: 15Rank: 15

帖子
6461
雪点
1574
阅读权限
90
在线时间
599 小时
注册时间
2016-3-13
最后登录
2019-3-24
发表于 2019-3-5 19:13:30 | 显示全部楼层
咁快有得DOWN BD洗版!
飘雪动漫社★缤纷动漫☆创意未来!
回复 支持 反对

使用道具 举报

签到天数: 2101 天

[LV.Master]伴坛终老

18

主题

22

好友

1万

积分

炎之精灵LV.2

Rank: 17Rank: 17Rank: 17Rank: 17Rank: 17

帖子
12000
雪点
73266
阅读权限
110
在线时间
2714 小时
注册时间
2012-7-1
最后登录
2019-3-23
发表于 2019-3-5 19:41:57 | 显示全部楼层
经典作品支持下分享了,90年代作品就系正。
飘雪动漫社★缤纷动漫☆创意未来!
回复 支持 反对

使用道具 举报

签到天数: 1623 天

[LV.Master]伴坛终老

525

主题

57

好友

8万

积分

精灵王

Rank: 17Rank: 17Rank: 17Rank: 17Rank: 17

帖子
86546
雪点
9338
阅读权限
130
在线时间
10546 小时
注册时间
2014-5-26
最后登录
2019-3-24
发表于 2019-3-6 02:08:18 | 显示全部楼层
睇來,都係經典動畫藍光啊!多謝
回复 支持 反对

使用道具 举报

您需要登录后才可以回帖 登录 | 立即注册

本版积分规则

下载客户端
安卓客户端 IOS客户端

快来加入我们吧!!

官方QQ群号

飘雪动漫社

Powered by Discuz! X3.4© 2001-2017 Comsenz Inc.

手机版| 小黑屋| Archiver| 飘雪动漫社

GMT+8, 2019-3-24 05:40 , Processed in 0.152180 second(s), 38 queries , MemCache On.