找回密码
 立即注册
快捷导航
发帖
飘盘 聊天 资讯 萌图 漫画 动画 规则 帮助 手机客户端 新手指南
查看: 241|回复: 32

[百度网盘] [转载][龙珠GT特别篇:悟空外传! 勇气的证明四星珠!][粤日双语][DVDRip][1部全]

  [复制链接]

签到天数: 63 天

[LV.6]常住居民II

11

主题

0

好友

340

积分

土之精灵LV.1

Rank: 5Rank: 5Rank: 5

帖子
210
雪点
1121
阅读权限
40
性别
保密
在线时间
92 小时
注册时间
2019-1-12
最后登录
2019-3-24
发表于 2019-3-14 01:03:54 | 显示全部楼层 |阅读模式

◎译  名 龙珠GT特别篇:悟空外传! 勇气的证明四星珠!/DragonBall GT TV Special
◎片  名 悟空外伝!勇気の证は四星球!
◎年  代 1997
◎产  地 日本
◎类  别 动画
◎语  言 日语/粤语(默认)
◎字  幕 简体中文(默认)/繁体中文
◎格  式 DVDRip.1280x960p.x264.AC3(652.86MB)
◎素材来源 
视频和日语来自:Dragon Ball GT [DVDrip 1280x960 H264 AC3]
magnet:?xt=urn:btih:c593bf730adfd6eb3b70e2f74abbd0e8e006373d
字幕来自伪射手,粤语来自广府影院RMVB视频
◎上映日期 1997-03-26
◎IMDb评分  6.6/10 from 1,474 users
◎IMDb链接  https://www.imdb.com/title/tt0142232/
◎豆瓣评分 7.8/10 from 550 users
◎豆瓣链接 https://douban.com/subject/4848693/
◎片  长 46分钟
◎导  演 葛西治
◎编  剧 前川淳
◎主  演 野泽雅子 Masako Nozawa
       皆口裕子 Yûko Minaguchi
       古谷彻 Tôru Furuya

◎标  签 龙珠 | 动画 | 日本 | 日本动画 | 剧场版 | 动漫 | 鸟山明 | 童年

◎简  介

  妄图灭亡赛亚民族的贝比,在最终决战中败于孙悟空的手下,历经千辛万苦地球迎来了难得的和平,此后便是长达一百年的快乐时光。曾经在人们心中留下无数珍贵回忆的Z战士和GT战士相继作古,而今只有小芳以婆婆的身份训练与悟空同名且相貌如出一辙的赛亚人后代。只不过,这个小悟空似乎缺乏祖先那样的勇气,无论武功还是意志方面都令小芳颇为头疼。某天,小芳婆婆突然病倒,难过的小悟空想起了神龙的传说。为了拯救最爱的婆婆,小悟空决定搜集龙珠,实现愿望。
  这个稚嫩的孩子鼓起勇气踏上了多舛的旅程……















  1. [backcolor=white]General
  2. Unique ID                      : 150821940388241324055193181704439019968 (0x71773FC6BFEDAEDC3EA88B5C802D39C0)
  3. Complete name                  : 龙珠GT特别篇:悟空外传!勇气的证明四星珠!.粤日双语.内封简繁.1997.DVDRip.1280x960p.x264.AC3.mkv
  4. Format                         : Matroska
  5. Format version                 : Version 4
  6. File size                      : 653 MiB
  7. Duration                       : 46 min 22 s
  8. Overall bit rate               : 1 969 kb/s
  9. Encoded date                   : UTC 2019-03-13 16:38:01
  10. Writing application            : mkvmerge v31.0.0 ('Dolores In A Shoestand') 64-bit
  11. Writing library                : libebml v1.3.6 + libmatroska v1.4.9

  12. Video
  13. ID                             : 1
  14. Format                         : AVC
  15. Format/Info                    : Advanced Video Codec
  16. Format profile                 : [email]High@L3.2[/email]
  17. Format settings                : CABAC / 3 Ref Frames
  18. Format settings, CABAC         : Yes
  19. Format settings, ReFrames      : 3 frames
  20. Codec ID                       : V_MPEG4/ISO/AVC
  21. Duration                       : 46 min 22 s
  22. Bit rate                       : 1 517 kb/s
  23. Width                          : 1 280 pixels
  24. Height                         : 960 pixels
  25. Display aspect ratio           : 4:3
  26. Frame rate mode                : Constant
  27. Frame rate                     : 23.976 (24000/1001) FPS
  28. Color space                    : YUV
  29. Chroma subsampling             : 4:2:0
  30. Bit depth                      : 8 bits
  31. Scan type                      : Progressive
  32. Bits/(Pixel*Frame)             : 0.051
  33. Stream size                    : 504 MiB (77%)
  34. Writing library                : x264 core 93 r1538bm bd72d46
  35. Encoding settings              : cabac=1 / ref=3 / deblock=1:1:1 / analyse=0x3:0x13 / me=umh / subme=7 / psy=1 / psy_rd=1.00:0.00 / mixed_ref=1 / me_range=16 / chroma_me=1 / trellis=1 / 8x8dct=1 / cqm=0 / deadzone=21,11 / fast_pskip=1 / chroma_qp_offset=-2 / threads=4 / sliced_threads=1 / slices=4 / nr=0 / decimate=1 / interlaced=0 / constrained_intra=0 / bframes=0 / wpredp=2 / keyint=250 / keyint_min=25 / scenecut=40 / intra_refresh=0 / rc_lookahead=40 / rc=2pass / mbtree=1 / bitrate=1517 / ratetol=1.0 / qcomp=0.60 / qpmin=10 / qpmax=51 / qpstep=4 / cplxblur=20.0 / qblur=0.5 / ip_ratio=1.40 / aq=1:1.00
  36. Default                        : Yes
  37. Forced                         : No

  38. Audio #1
  39. ID                             : 2
  40. Format                         : AC-3
  41. Format/Info                    : Audio Coding 3
  42. Commercial name                : Dolby Digital
  43. Codec ID                       : A_AC3
  44. Duration                       : 46 min 22 s
  45. Bit rate mode                  : Constant
  46. Bit rate                       : 256 kb/s
  47. Channel(s)                     : 2 channels
  48. Channel layout                 : L R
  49. Sampling rate                  : 48.0 kHz
  50. Frame rate                     : 31.250 FPS (1536 SPF)
  51. Bit depth                      : 16 bits
  52. Compression mode               : Lossy
  53. Stream size                    : 84.9 MiB (13%)
  54. Title                          : 日语
  55. Service kind                   : Complete Main
  56. Default                        : No
  57. Forced                         : No

  58. Audio #2
  59. ID                             : 3
  60. Format                         : AC-3
  61. Format/Info                    : Audio Coding 3
  62. Commercial name                : Dolby Digital
  63. Codec ID                       : A_AC3
  64. Duration                       : 46 min 22 s
  65. Bit rate mode                  : Constant
  66. Bit rate                       : 192 kb/s
  67. Channel(s)                     : 2 channels
  68. Channel layout                 : L R
  69. Sampling rate                  : 48.0 kHz
  70. Frame rate                     : 31.250 FPS (1536 SPF)
  71. Bit depth                      : 16 bits
  72. Compression mode               : Lossy
  73. Stream size                    : 63.7 MiB (10%)
  74. Title                          : 粤语
  75. Service kind                   : Complete Main
  76. Default                        : Yes
  77. Forced                         : No

  78. Text #1
  79. ID                             : 4
  80. Format                         : ASS
  81. Codec ID                       : S_TEXT/ASS
  82. Codec ID/Info                  : Advanced Sub Station Alpha
  83. Duration                       : 43 min 44 s
  84. Bit rate                       : 71 b/s
  85. Count of elements              : 405
  86. Compression mode               : Lossless
  87. Stream size                    : 22.9 KiB (0%)
  88. Title                          : 简体中文(对应日语)
  89. Default                        : Yes
  90. Forced                         : No

  91. Text #2
  92. ID                             : 5
  93. Format                         : ASS
  94. Codec ID                       : S_TEXT/ASS
  95. Codec ID/Info                  : Advanced Sub Station Alpha
  96. Duration                       : 43 min 44 s
  97. Bit rate                       : 71 b/s
  98. Count of elements              : 405
  99. Compression mode               : Lossless
  100. Stream size                    : 22.9 KiB (0%)
  101. Title                          : 繁体中文(对应日语)
  102. Default                        : No
  103. Forced                         : No[/backcolor]
复制代码


链接:https://pan.baidu.com/s/1GoE8XoX-eiZLPezHhdLkYA
游客,如果您要查看本帖隐藏内容请回复*升级为VIP免回复查看立即升级

飘雪动漫社★缤纷动漫☆创意未来!

签到天数: 1623 天

[LV.Master]伴坛终老

525

主题

57

好友

8万

积分

精灵王

Rank: 17Rank: 17Rank: 17Rank: 17Rank: 17

帖子
86545
雪点
9337
阅读权限
130
在线时间
10546 小时
注册时间
2014-5-26
最后登录
2019-3-24
发表于 2019-3-14 02:16:29 | 显示全部楼层
睇下,係唔係以前都有嘅版本來先
回复 支持 反对

使用道具 举报

签到天数: 1283 天

[LV.10]以坛为家III

 成长值: 4320

196

主题

5

好友

8617

积分

贵宾

Rank: 25Rank: 25Rank: 25Rank: 25Rank: 25

帖子
3047
雪点
66322
阅读权限
150
性别
保密
在线时间
2196 小时
注册时间
2014-6-6
最后登录
2019-3-24
发表于 2019-3-14 05:24:43 | 显示全部楼层
多谢分享龙珠GT特别篇合成版本
飘雪动漫社★缤纷动漫☆创意未来!
回复 支持 反对

使用道具 举报

签到天数: 1211 天

[LV.10]以坛为家III

5

主题

0

好友

3185

积分

风之精灵LV.1

Rank: 8Rank: 8Rank: 8Rank: 8

帖子
2850
雪点
3941
阅读权限
70
性别
在线时间
649 小时
注册时间
2015-4-28
最后登录
2019-3-24
发表于 2019-3-14 10:40:03 | 显示全部楼层
多謝分享
GT特別篇, 其實故事真係唔錯
飘雪动漫社★缤纷动漫☆创意未来!
回复 支持 反对

使用道具 举报

签到天数: 1906 天

[LV.Master]伴坛终老

4

主题

6

好友

6618

积分

风之精灵LV.3

Rank: 15Rank: 15Rank: 15

帖子
4000
雪点
32304
阅读权限
90
在线时间
1965 小时
注册时间
2013-11-22
最后登录
2019-3-24
发表于 2019-3-14 11:16:34 | 显示全部楼层
龙珠GT特别篇,支持下楼主作品,多谢分享。
凡事睇开D,烦恼都少D。
回复 支持 反对

使用道具 举报

签到天数: 1087 天

[LV.10]以坛为家III

12

主题

1

好友

7258

积分

风之精灵LV.3

Rank: 15Rank: 15Rank: 15

帖子
6775
雪点
5551
阅读权限
90
性别
在线时间
575 小时
注册时间
2013-8-20
最后登录
2019-3-23
发表于 2019-3-14 13:17:00 | 显示全部楼层
终于都找到呢部了
飘雪动漫社★缤纷动漫☆创意未来!
回复 支持 反对

使用道具 举报

签到天数: 795 天

[LV.10]以坛为家III

28

主题

48

好友

3109

积分

风之精灵LV.1

Rank: 8Rank: 8Rank: 8Rank: 8

帖子
2403
雪点
4629
阅读权限
70
性别
在线时间
1089 小时
注册时间
2012-6-10
最后登录
2019-3-24
发表于 2019-3-14 14:17:56 | 显示全部楼层
TVB?爱子?
回复 支持 反对

使用道具 举报

签到天数: 900 天

[LV.10]以坛为家III

3

主题

0

好友

1902

积分

风之精灵LV.1

Rank: 8Rank: 8Rank: 8Rank: 8

帖子
1154
雪点
8963
阅读权限
70
性别
保密
在线时间
403 小时
注册时间
2014-3-18
最后登录
2019-3-23
发表于 2019-3-14 15:03:08 | 显示全部楼层
怎么单独分享出来了
飘雪动漫社★缤纷动漫☆创意未来!
回复 支持 反对

使用道具 举报

签到天数: 939 天

[LV.10]以坛为家III

21

主题

3

好友

2315

积分

风之精灵LV.1

Rank: 8Rank: 8Rank: 8Rank: 8

帖子
1126
雪点
14574
阅读权限
70
性别
在线时间
630 小时
注册时间
2015-3-24
最后登录
2019-3-24
发表于 2019-3-14 15:27:17 | 显示全部楼层
谢谢分享龙珠GT剧场版
飘雪动漫社★缤纷动漫☆创意未来!
回复 支持 反对

使用道具 举报

签到天数: 63 天

[LV.6]常住居民II

11

主题

0

好友

340

积分

土之精灵LV.1

Rank: 5Rank: 5Rank: 5

帖子
210
雪点
1121
阅读权限
40
性别
保密
在线时间
92 小时
注册时间
2019-1-12
最后登录
2019-3-24
 楼主| 发表于 2019-3-14 17:22:40 | 显示全部楼层
foolish9 发表于 2019-3-14 15:03
怎么单独分享出来了

发帖涨积分
飘雪动漫社★缤纷动漫☆创意未来!
回复 支持 反对

使用道具 举报

您需要登录后才可以回帖 登录 | 立即注册

本版积分规则

下载客户端
安卓客户端 IOS客户端

快来加入我们吧!!

官方QQ群号

飘雪动漫社

Powered by Discuz! X3.4© 2001-2017 Comsenz Inc.

手机版| 小黑屋| Archiver| 飘雪动漫社

GMT+8, 2019-3-24 01:54 , Processed in 0.123595 second(s), 37 queries , MemCache On.